<?xml version="1.0" standalone="no"?>
<!DOCTYPE svg PUBLIC "-//W3C//DTD SVG 1.1//EN" "http://www.w3.org/Graphics/SVG/1.1/DTD/svg11.dtd">
<svg xmlns="http://www.w3.org/2000/svg">
<metadata>Generated by Fontastic.me</metadata>
<defs>
<font id="otgs-icons" horiz-adv-x="512">
<font-face font-family="otgs-icons" units-per-em="512" ascent="480" descent="-32"/>
<missing-glyph horiz-adv-x="512" />

<glyph glyph-name="note-add" unicode="&#97;" d="M394 304c-49 0-89 39-89 89l0 59-180 0c-36 0-65-29-65-65l0-261c0-70 66-66 66-66l261 0c36 0 65 29 65 65l0 179z m-92-91l-29 0 0-29c0-15-12-27-27-27-16 0-28 12-28 27l0 29-30 0c-16 0-28 12-28 28 0 15 12 27 28 27l29 0 0 29c0 15 12 27 27 27 15 0 27-12 27-27l0-29 29 0c16 0 28-12 28-27 1-14-11-28-26-28z m97 132l52 0-110 109 0-51c2-33 28-58 58-58z"/>
<glyph glyph-name="note-add-o" unicode="&#98;" d="M242 324c16 0 28-12 28-27l0-29 29 0c15 0 27-12 27-27 0-16-12-28-27-28l-29 0 0-29c0-15-12-27-28-27-15 0-27 12-27 27l0 29-29 0c-15 0-27 12-27 28 0 15 12 27 27 27l29 0 0 29c0 14 12 27 27 27z m77 140l-196 0c-44 0-80-36-80-80l0-258c0-65 51-82 80-82l259 0c45 0 81 36 81 81l0 194z m0-48l97-99-25 0c-39 0-72 33-72 72z m111-293c0-26-20-46-46-46l-259 0c-14 0-48 5-48 49l0 258c0 26 20 46 46 46l162 0 0-41c0-58 48-104 104-104l41 0z"/>
<glyph glyph-name="translated" unicode="&#99;" d="M439 384c-19 19-50 19-70 0l-156-154-70 70c-18 19-49 19-70 0-18-18-18-49 0-70l104-104c19-18 52-18 70 0l190 188c20 21 20 51 2 70z"/>
<glyph glyph-name="yes" unicode="&#100;" d="M111 44c-7 0-36 2-58 23-15 15-24 35-24 61l0 256c0 44 36 80 80 80l179 0 0-34-177 0c-26 0-46-20-46-46l0-258c0-15 5-29 12-36 13-13 34-11 36-11l259 0c26 0 46 20 46 46l0 179 34 0 0-179c0-45-36-81-80-81l-259 0c0 0-2 0-2 0z m123 108c-9 0-17 3-24 10l-91 89c-13 14-13 34 0 48 14 13 35 13 48 0l60-60 140 213c10 16 31 21 48 11 15-11 20-31 10-48l-164-249c-5-9-15-14-25-16 0 2 0 2-2 2z"/>
<glyph glyph-name="in-progress" unicode="&#101;" d="M329 203l0-15c-1-9-8-16-17-17l-17 0c-1 0-3 0-5-2-2 0-3-2-5-3-7-7-7-16-2-23l4-3 7-7 3-3c5-7 5-17 0-24l-12-12c-7-5-17-5-24 0l-5 3-7 7-3 4c0 0-2 0-2 1-2 2-5 2-7 2 0 0 0 0-1 0-2 0-4 0-6 0 0 0-1 0-1-2 0 0 0 0-2 0-2 0-2-1-3-3-2-2-4-5-4-9l0-17c-2-8-8-15-17-17l-15 0c-9 2-16 9-17 17l0 17c0 4-2 7-5 11-4 3-9 5-14 5 0 0 0 0-2 0 0 0-2 0-2 0 0 0-1 0-1 0 0 0-2 0-2 0 0 0 0 0-2 0 0 0 0 0-1-2l-9-9-3-3c-7-5-17-5-24 0l-12 12c-5 7-5 17 0 24l3 3 7 7 4 3c1 4 3 7 3 11 0 7-5 13-12 15 0 0 0 0-2 0 0 0-1 0-1 0l-19 0c-9 2-16 9-17 17l0 16c1 8 8 17 17 17l17 0c3 0 7 1 10 5 4 3 5 8 5 13 0 0 0 2 0 2 0 0 0 2 0 2 0 0 0 0 0 1 0 0 0 0 0 2l-12 7-3 3c-5 7-5 17 0 24l12 12c7 5 17 5 24 0l3-3 7-7 3-3c4-2 7-4 11-4 3 0 8 2 10 4 2 1 3 3 3 5 0 0 0 1 0 1 0 0 0 2 0 2 0 0 0 2 0 2 0 0 0 2 0 2l0 18c2 9 9 16 17 17l16 0c8-1 15-8 17-17l0-17c0-3 1-7 5-10 2-2 3-3 5-3 5-2 12-2 17 1l12 12c7 5 17 5 24 0l12-12c5-7 5-17 0-24l0-3-10-10c-2-2-2-4-4-5 0-2-2-4-2-5 0-6 4-11 7-14 2-2 5-2 7-4l22 0c9 0 16-6 17-15z m-134 31c-21 0-38-17-38-38 0-20 17-37 38-37 20 0 37 17 37 37 2 21-17 38-37 38z m257 94l-5-11c-3-5-10-8-17-6l-3 1-7 2-4 2c-1 0-1 0-3 0-2 0-3 0-5-2-5-2-9-9-7-15l2-2 5-10c2-7-2-14-7-17l-10-5c-7-2-14 0-17 6l-2 4-2 7-1 3c0 0 0 0 0 2-2 1-2 3-4 3-1 0-1 0-3 0 0 0-2 0-2 0-2 0-2 0-3-2-2-1-4-3-5-5l-2-1-2-7-5-2c-3-5-10-8-17-7l-10 5c-5 4-9 11-7 17l2 4 1 5 2 3c0 2 0 5 0 9-2 3-3 5-7 7 0 0 0 0-2 0 0 0 0 0-1 0 0 0 0 0-2 0 0 0 0 0-2 0 0 0 0 0-1 0l-9-5-3-2c-7-2-14 2-17 7l-5 10c-2 7 1 14 6 17l11 5 3 2c2 2 3 3 5 5 2 5 0 10-3 14 0 0 0 0-2 0l-9 3-3 2c-5 3-8 10-7 17l5 10c4 5 11 9 17 7l2-2 7-2 3-1c2 0 5 0 9 0 3 1 7 5 7 8 0 0 0 0 0 2 0 0 0 0 0 2l-5 12-2 3c-2 7 2 14 7 17l10 5c7 2 14-1 17-7l2-3 1-7 2-3c2-2 4-4 7-5 2 0 5 0 7 0 2 0 3 1 3 1 0 0 0 0 0 2 0 0 0 0 0 2 0 0 0 0 0 1l2 2 2 7 1 3c4 6 11 9 17 7l11-5c5-3 8-10 6-17l-1-3-2-7-2-4c0-1 0-5 0-8 0-2 2-4 2-4 3-3 9-5 12-3l14 7 3 2c7 1 14-2 17-7l5-10c2-7 0-14-7-18l-3-1-7-2-3-2c-2 0-2-1-4-3-1-2-1-2-1-3-2-4-2-9 1-12 2-2 2-4 4-4l8-3 4-2c7-3 10-10 8-15z m-83 56c-14 5-31-2-36-15-5-14 2-31 15-36 14-5 31 2 36 15 5 14 0 31-15 36z"/>
<glyph glyph-name="copy" unicode="&#102;" d="M420 398l41 0-86 87 0-41c0-26 21-46 45-46z m-4-33c-39 0-71 33-71 70l0 48-144 0c-29 0-51-22-51-51l0-277c0-56 53-53 53-53l208 0c29 0 52 23 52 52l0 211z m-10-106l-51-51c-5-5-12-1-12 5l0 23-113 0c-10 0-18 8-18 18l0 22c0 11 8 19 18 19l113 0 0 22c0 7 9 11 12 6l51-52c0 0 4-3 0 0 4-5 4-8 0-12z m0 11c4-4 0 0 0 0z m-281-132l0 222-17 0c-24 0-52-25-52-49l0-241c0-48 53-51 53-51l181 0c24 0 39 25 39 49l0 2-145 0c-24 0-59 15-59 68z"/>
<glyph glyph-name="copy-o" unicode="&#103;" d="M387 271l-47 48c-5 5-12 2-12-5l0-20-108 0c-10 0-17-9-17-18l0-20c0-10 7-17 17-17l108 0 0-21c0-5 7-8 12-5l47 48c2 4 2 9 0 10 0 0 2-1 0 0z m-44 221l-145 0c-29 0-53-21-60-48l-27 0c-32 0-60-28-60-60l0-290c0-19 5-34 17-45 16-15 36-15 43-15 0 0 2 0 2 0l189 0c29 0 53 21 58 48l31 0c32 0 60 27 60 60l0 240z m0-36l72-74-19 0c-29 0-53 24-53 53z m-41-398l-191 0c0 0-15 0-26 9-6 5-8 15-8 27l0 290c0 19 15 34 34 34l26 0 0-276c0-48 37-62 59-62l137 0c-4-13-16-22-31-22z m125 82c0-19-16-34-34-34l-193 0c-11 0-36 3-36 36l0 290c0 19 15 34 34 34l121 0 0-31c0-42 34-78 79-78l29 0z"/>
<glyph glyph-name="note-edit" unicode="&#105;" d="M399 345l52 0-110 109 0-51c2-33 28-58 58-58z m-5-41c-49 0-89 39-89 89l0 59-180 0c-36 0-65-29-65-65l0-261c0-70 66-66 66-66l261 0c36 0 65 29 65 65l0 179z m-133-128l-107 107c-7 7-7 19 0 26l29 29c6 7 18 7 25 0l108-108c7-6 7-18 0-25l-29-29c-5-9-17-9-26 0z m31-22l44 44 21-65z"/>
<glyph glyph-name="add" unicode="&#107;" d="M297 215l123 0c19 0 32 15 32 32l0 18c0 18-15 32-32 32l-123 0 0 123c0 19-15 32-32 32l-18 0c-18 0-32-15-32-32l0-123-123 0c-19 0-32-15-32-32l0-18c0-18 15-32 32-32l123 0 0-123c0-19 15-32 32-32l18 0c18 0 32 15 32 32z"/>
<glyph glyph-name="refresh" unicode="&#108;" d="M258 437c-103 0-185-82-185-184l-30 0c-9 0-12-6-5-12l27-28 27-25c7-7 17-7 24 0l55 54c6 7 3 12-5 12l-33 0c0 69 56 125 125 125 34 0 66-14 88-36l41 41c-34 32-78 53-129 53z m-4-362c101 0 185 82 185 184l30 0c9 0 12 6 5 12l-27 28-27 25c-7 7-17 7-24 0l-55-54c-6-7-5-12 5-12l33 0c0-69-56-125-125-125-34 0-66 14-88 36l-41-41c34-32 78-53 129-53z"/>
<glyph glyph-name="no" unicode="&#110;" d="M464 384c0 44-36 80-80 80l-261 0c-44 0-80-36-80-80l0-258c0-25 8-46 24-61 20-21 49-22 58-22 1 0 1 0 1 0l258 0c44 0 80 36 80 80z m-34-261c0-26-20-46-46-46l-259 0c0 0-21 0-36 12-9 8-12 20-12 36l0 259c0 26 20 46 46 46l261 0c26 0 46-20 46-46z"/>
<glyph glyph-name="not-translated" unicode="&#111;" d="M329 256l111 111c16 15 16 43 0 60l-15 15c-15 17-43 17-60 0l-109-113-111 111c-15 16-43 16-58 0l-15-15c-16-15-16-43 0-58l111-111-111-111c-16-15-16-43 0-60l15-15c15-15 43-15 60 0l111 111 111-111c15-15 42-15 59 0l16 15c15 16 15 43 0 60z"/>
<glyph glyph-name="delete" unicode="&#112;" d="M403 428l-99 0c0 14-10 24-24 24l-50 0c-13 0-23-10-23-24l-98 0c-13 0-24-10-24-24 0-13 11-23 24-23l295 0c14 0 24 10 24 23 0 14-12 24-25 24z m-295-71l0-243c0-30 25-56 56-56l186 0c31 0 56 26 56 56l0 243z m83-226c0-8-7-15-15-15-9 0-16 7-16 15l0 151c0 8 7 15 16 15 8 0 15-7 15-15z m80 0c0-8-6-15-15-15-9 0-15 7-15 15l0 151c0 8 6 15 15 15 9 0 15-7 15-15z m82 0c0-8-7-15-15-15-9 0-15 7-15 15l0 151c0 8 6 15 15 15 8 0 15-7 15-15z"/>
<glyph glyph-name="waiting" unicode="&#113;" d="M439 90c-2 0-4 4-4 6-2 6-2 12-3 18-17 70-62 115-130 135-3 2-5 4-5 7 0 3 2 5 5 7 72 19 123 78 133 152 0 3 2 7 7 7 9 1 12 10 10 17-1 8-8 13-19 13-100 0-201 0-302 0-18 0-35 0-54 0-10 0-17-5-19-13-2-9 3-14 14-17l3-4c4-8 4-15 7-22 19-68 61-113 130-133 3-2 5-4 5-7 0-3 0-5-5-7-72-19-123-78-133-152 0-3-2-7-7-7-9-1-14-15-11-23 2-7 9-16 18-16 59 0 117 0 177 0 60 0 118 0 177 0 11 0 18 10 19 19 2 7-5 19-13 20z m-33 328c-3-10-12-34-15-43l-270 0c-3 6-5 11-7 16-3 7-3 19-6 27m122-196c14 0 41 2 57 0 24-5 46-15 65-33 12-10 22-22 30-35l-252 0c22 34 59 61 100 68z"/>
<glyph glyph-name="warning" unicode="&#115;" d="M447 126l-165 285c-14 24-36 24-52 0l-165-285c-14-24-2-44 25-44l330 0c29 0 41 20 27 44z m-165 14l-48 0 0 31 48 0z m-6 51l-39 0-5 126 50 0z"/>
<glyph glyph-name="original" unicode="&#116;" d="M256 452c-108 0-196-88-196-196 0-108 88-196 196-196 108 0 196 88 196 196 0 108-88 196-196 196z m138-112l4-5c10-19 17-40 20-62l0-7-73 0 0 7c0 17-2 32-5 48l-2 7 7 1c15 4 30 6 44 11z m-65 59c16-8 29-17 41-29 0 0 2-1 2-1l9-9-11-3c-8-2-18-4-29-5l-5 0-1 5c-4 12-7 25-12 36l-7 17z m-13-131l-125 0 0 7c0 15 2 30 5 44l2 5 5 0c17-1 36-1 55-1 18 0 37 0 54 1l5 0 2-5c2-14 4-29 5-44l0-7z m7-24l0-7c0-15-2-30-6-44l-1-5-5 0c-17 1-36 1-55 1-19 0-38 0-55-1l-5 0-1 5c-2 14-4 29-6 44l0 7z m-120 111c4 10 7 20 10 29 5 12 12 22 17 29l2 2 2 0c7 1 13 1 20 1 7 0 14 0 22-1l2 0 2-2c7-7 12-17 17-29 3-9 7-19 10-29l2-7-9 0c-15-2-30-2-47-2-17 0-33 0-48 2l-7 0z m-63 14c0 0 2 1 2 1 12 12 25 23 41 29l15 9-7-17c-5-10-8-22-12-36l-2-5-5 2c-10 1-20 3-29 5l-12 3z m-44-94c1 22 8 42 20 61l2 5 5-1c14-4 27-7 44-11l7-1-2-7c-3-16-5-31-5-48l0-7-71 0z m22-103l-2 5c-10 19-17 40-20 62l0 7 73 0 0-7c0-17 2-32 5-48l2-7-7-1c-15-4-31-6-44-11z m65-59c-16 8-29 17-41 29 0 0-2 1-2 1l-7 9 10 3c9 2 19 4 29 5l5 2 2-5c4-14 7-26 12-36l7-15z m126 44c-4-10-7-20-10-29-5-12-12-22-17-29l-2-2-2 0c-7-1-13-1-22-1-7 0-14 0-20 1l-2 0-2 2c-7 7-12 17-17 29-3 9-7 19-10 29l-2 7 7 0c15 2 31 2 48 2 17 0 32 0 47-2l9 0z m63-12c0 0-2-2-2-2-12-12-25-22-41-29l-15-8 7 15c5 10 8 22 12 36l2 5 5-2c10-1 20-3 29-5l10-3z m44 92c-1-22-8-42-20-61l-3-5-6 1c-13 4-27 7-44 11l-7 1 2 7c2 16 3 31 5 48l0 7 73 0z"/>
<glyph glyph-name="needs-update" unicode="&#117;" d="M258 437c-103 0-185-82-185-184l-30 0c-9 0-12-6-5-12l27-28 27-25c7-7 17-7 24 0l55 54c6 7 3 12-5 12l-33 0c0 69 56 125 125 125 34 0 66-14 88-36l41 41c-34 32-78 53-129 53z m-4-362c101 0 185 82 185 184l30 0c9 0 12 6 5 12l-27 28-27 25c-7 7-17 7-24 0l-55-54c-6-7-5-12 5-12l33 0c0-69-56-125-125-125-34 0-66 14-88 36l-41-41c34-32 78-53 129-53z m19 260l-5-115-36 0-5 115z m0-163l-44 0 0 29 44 0z"/>
<glyph glyph-name="cred" unicode="&#119;" d="M384 427l0 85-85 0 0-85-86 0 0 85-85 0 0-85-85 0 0-427 426 0 0 427z m-32-329c0-1 0-2-1-3 0 0 0-1 0-2-1-1-1-1-2-2-1-1-1-1-1-2-1-1-2-2-2-2-1-1-2-2-3-2l-1 0c-1-1-2-2-4-3-1 0-2-2-4-2 0-1-2-1-3-2l0 0c-1-1-2-1-2-1l-2 0c-2-1-3-2-6-2l0 0c-2-1-5-2-7-2l0 0c-3-1-5-2-8-3l-1 0c-3 0-5-1-8-1l-1 0c-2-1-4-1-7-1l-2 0c-2 0-5 0-7 0l-1 0c-3 0-6-1-9-1l-1 0c-2 0-5 0-7 0l-1 0c-1 0-3 0-4 0-1 0-2 0-3 0l-1 0c-2 0-4 0-6 0l-2 0c-2 0-3 0-5 1l-2 0c-2 0-3 0-5 0l-1 0c-2 0-3 1-5 1l-2 0c-2 0-3 1-5 1-2 0-4 0-6 1l-1 0c-3 1-5 1-6 2l-1 0c-3 0-5 1-7 2l-1 0c0 0-1 0-2 0l-2 1c-1 0-1 1-2 1l-1 1 0 0-6 2-2 1-2-3-10 5-2 2-1 1-2 1 0 1-2 2 0 1 0 3-1 1 0 1-1 1 0 3c0 1 0 2 0 2l-1 56c0-1 0-2 0-2l0-4 1-1 6-5 1-1 2-2 5-3 2-5 5-3 2 0 6-3c0 0 1-1 2-1l1-1c1 0 2 0 3 0l1-1c3-1 5-2 7-2l1 0c2-1 3-1 5-2l2 0c1 0 3 0 5-1l1 0c2 0 4-1 6-1l1 0c2 0 3-1 5-1l2 0c2 0 3 0 5 0l2 0c1 0 2 0 5-1l1 0c2 0 4 0 6 0 2 0 3 0 5 0 1 0 3 0 4 0 2 0 5 0 7 0l2 0c2 0 5 0 8 1l1 0c3 0 5 0 8 0l1 0c2 0 5 1 7 1l1 0c3 1 6 1 8 2l1 0c3 0 5 1 8 2l1 0c2 0 4 1 6 2l1 0c2 1 3 1 5 2l1 1c1 0 2 0 2 0l2 1c0 1 2 1 3 2 1 0 3 2 4 2 2 1 3 2 4 3l1 0c0 1 2 2 3 2 0 1 1 2 2 3l0 0c1 1 2 2 2 2 1 1 1 2 1 2l0 1c0 1 1 2 1 2 0 1 0 2 1 3l0 2 0-56z m0 80c0-2 0-2-1-3 0-1 0-1 0-2-1-1-1-2-2-2-1-1-1-2-1-2-1-1-2-2-2-3-1 0-2-1-3-2l-1 0c-1 0-2-1-4-2-1-1-2-2-4-3 0 0-2 0-3-1l-1-1c-1-1-1-1-2-1l-2 0c-2 0-3-1-5-2l-1 0c-2 0-4-1-6-2l-1 0c-2-1-5-1-8-2l-1 0c-2-1-5-1-7-1l-2 0c-2-1-4-1-7-1l-1 0c-3 0-5-1-8-1l-1 0c-3 0-6-1-8-1l-2 0c-2 0-5 0-7 0l-1 0c-1 0-3 0-3 0-2 0-3 0-4 0l-1 0c-2 0-4 0-6 0l-2 0c-2 0-3 0-4 1l-2 0c-3 0-4 1-6 1l-1 0c-1 0-3 1-5 1l-1 0c-2 0-4 0-6 0-2 0-4 1-6 2l-1 0c-2 0-4 0-6 1l-1 0c-2 1-4 2-7 2l0 0c-1 0-2 1-3 1l-2 1c0 0-1 0-2 0l0 1-1 0-4 2-3-3-11 6 0 2-3 3-1 1-1 1-3 2 0 2 0 1-1 1 0 1-1 1 0 3c0 1 0 1 0 2l-1 56c0-1 0-2 0-3l0-3 7-7 1 0 2-2 12-7 2-1 6-2c0 0 1-1 2-1l1-1c1 0 2-1 3-1l1 0c3-1 5-2 7-2l1 0c2-1 3-1 5-2l2 0c1 0 3 0 5-1l1 0c2 0 4-1 6-1l1 0c2 0 3-1 5-1l2 0c2 0 3 0 5 0l2 0c1 0 2 0 5-1l1 0c2 0 4 0 6 0 2 0 3 0 5 0 1 0 3 0 4 0 2 0 5 0 7 0l2 0c2 0 5 0 8 1l1 0c3 0 5 0 8 0l1 0c2 0 5 1 7 1l1 0c3 1 6 1 8 2l1 0c3 0 5 1 8 2l1 0c2 0 4 1 6 2l1 0c2 0 3 1 5 2l1 1c1 0 2 0 2 0l2 1c0 1 2 1 3 1 1 1 3 3 4 3 2 1 3 2 4 2l1 1c0 1 2 2 3 2 0 1 1 2 2 2l0 1c1 1 2 2 2 2 1 1 1 2 1 2l0 1c0 1 1 2 1 2 0 1 1 2 1 3l0 2 0-56z m0 79c0-2 0-2-1-3 0-1 0-2 0-2-1-1-1-2-2-2-1-1-1-2-1-3-1 0-2-1-2-2-1 0-2-1-3-2l-1 0c-1-1-2-1-4-2-1-1-2-2-4-3 0 0-2 0-3-1l-1-1c-1-1-1-1-2-1l-2 0c-2 0-3-1-5-2l-1 0c-2 0-4-1-6-2l-1-3c-2-1-5-2-8-3l-1 0c-2 0-5-1-7-1l-2 0c-2-1-4-1-7-1l-1 0c-3 0-5 0-8 0l-1 0c-3 0-6-1-8-1l-2 0c-2 0-5 0-7 0l-1 0c-1 0-3 0-3 0-2 0-3 0-4 0l-1 0c-2 0-4 0-6 0l-2 0c-2 0-3 0-4 1l-2 0c-3 0-4 0-6 0l-1 0c-1 0-3 1-5 1l-1 0c-2 0-4 1-6 1-2 0-4 0-6 1l-1 0c-2 1-4 1-6 2l0 0c-3 0-5 1-7 2l-1 0c0 0-1 0-2 0l-2 1c-1 0-1 1-2 1l-1 1 0 0-2 0-2 2-3 1-1 1-7 3-2 2-3 1-2 3-1 1-2 2-2 2 0 1 0 1-1 2 0 0-1 1 0 3c0 1 0 1 0 2l-1 48c0 0 0 0 0 1 0 0 0 0 0 1l0 6c0-1 0-1 0-2l0-1c5 19 45 34 95 34 50-1 91-17 95-37 0 0 0 1 0 2l0 1 1-55z"/>
<glyph glyph-name="layouts" unicode="&#120;" d="M384 427l0 85-85 0 0-85-86 0 0 85-85 0 0-85-85 0 0-427 426 0 0 427z m-208-370l-79 0 0 193 79 0z m236 0l-216 0 0 193 216 0z m0 214l-315 0 0 83 315 0z"/>
<glyph glyph-name="module-manager" unicode="&#121;" d="M384 427l0 85-85 0 0-85-86 0 0 85-85 0 0-85-85 0 0-427 426 0 0 427z m-142-381l-130 76 0 138 130-78c0 0 0-136 0-136z m156 76l-130-76 0 132 130 78z m0 165l-140-84-144 85 141 82z"/>
<glyph glyph-name="toolset" unicode="&#122;" d="M410 410l0 102-103 0 0-102-102 0 0 102-103 0 0-102-68 0 0-410 444 0 0 410z m-315-232c0-4-1-7-4-9-3-2-6-3-11-3l-3 0-3-14-6 0 8 36 8 0c3 0 6-1 8-3 2-1 3-4 3-7z m-17-7l2 0c3 0 5 0 7 1 2 2 2 3 2 6 0 2 0 3-1 4 0 1-2 1-4 1l-3 0z m23-19l-5 0 8 38 5 0z m19 27l-3-15c0-2 0-4 0-4 0-2 1-4 2-4 2 0 3 1 4 2 1 1 2 2 3 4 1 1 1 3 2 6l2 11 6 0-6-27-4 0 0 6c-1-2-3-4-4-4-1-1-3-2-4-2-3 0-4 1-5 2-1 1-2 3-2 5 0 1 0 3 1 3 0 1 0 2 0 3l3 14z m44 0l-1-3-4-1c0-1 0-2 0-3 0-3-1-6-3-8-1-1-4-2-8-2 0 0-1 0-2 0-2-1-3-2-3-3 0 0 0-1 1-1 0 0 1 0 2 0l3-1c3-1 5-1 6-2 1-1 2-3 2-5 0-3-1-6-3-7-3-2-6-3-11-3-3 0-5 1-7 2-2 1-3 2-3 5 0 1 1 3 2 4 1 1 3 3 5 3-1 1-2 2-2 3 0 1 1 2 1 3 1 0 2 2 4 2-2 1-4 4-4 6 0 4 2 6 3 8 2 1 5 3 8 3 1 0 3 0 4-1l10 0z m-20-26c-2-1-3-1-4-2-1 0-2-1-2-3 0-1 1-2 1-2 2-1 3-2 4-2 3 0 5 1 7 2 1 1 2 2 2 4 0 0-1 1-1 1-1 1-3 1-4 1z m7 23c-1 0-2-1-3-1-1-1-1-2-2-3 0-1 0-2 0-3 0-1 0-2 1-3 0 0 1-1 2-1 1 0 2 1 3 1 0 1 1 2 2 3 0 1 0 2 0 3 0 3-1 4-3 4z m17-24l-5 0 5 27 6 0z m2 34c0 1 0 2 1 3 0 0 1 1 3 1 1 0 1 0 2-1 0 0 0-1 0-1 0-1 0-3-1-3 0-1-1-1-2-1-1 0-2 0-2 0-1 0-1 1-1 2z m22-34l3 17c1 2 1 2 1 3 0 3-1 4-3 4-1 0-2-1-4-1-1-1-2-3-2-4-2-2-2-4-3-6l-2-11-6 0 6 26 5 0-1-5c1 2 3 4 4 4 1 1 3 1 5 1 2 0 4 0 5-1 1-2 1-3 1-5 0-2 0-3 0-5l-4-16z m30 9c0-3-1-5-2-6-2-2-5-3-8-3-3 0-6 1-8 2l0 5c2-1 5-2 7-2 2 0 3 1 4 1 1 1 2 2 2 3 0 1 0 2-1 2 0 1-2 1-3 3-3 1-4 2-5 3 0 1-1 2-1 4 0 2 1 4 3 6 2 1 4 2 7 2 3 0 5-1 8-2l-1-4c-3 1-5 1-7 1-1 0-2 0-3 0 0-1-1-1-1-2 0-1 0-2 1-2 0-1 2-1 3-2 2-2 3-2 4-3 0 0 1-1 1-2 0-2 0-3 0-4z m14-20c-2 0-3 0-4 0l0 5c1-1 2-1 3-1 2 0 3 2 5 5l5 25-5 0 1 2 4 2 1 2c0 4 1 6 3 7 2 1 4 3 6 3 2 0 4-1 6-2l-2-4c-1 1-2 1-4 1-1 0-2-1-2-1-1-1-2-2-2-4l-1-2 6 0-1-4-6 0-5-26c-1-3-2-5-3-7-1 0-3-1-5-1z m44 29c0-4-1-7-2-10-1-2-3-4-5-6-2-2-4-2-7-2-3 0-5 1-7 3-2 1-3 4-3 7 0 4 1 6 2 9 1 3 3 5 5 6 2 2 4 3 7 3 4 0 6-1 8-3 1-2 2-5 2-7z m-6 0c0 1 0 2-1 4-1 1-2 1-3 1-2 0-3 0-4-1-1-2-3-3-3-5-1-2-1-4-1-6 0-2 0-4 1-4 0-1 2-2 3-2 2 0 3 1 4 2 1 1 2 3 3 4 1 2 1 4 1 7z m27 10c1 0 2 0 3-1l-1-5c-1 0-2 1-3 1-2 0-4-1-5-3-2-2-3-4-4-8l-2-12-6 0 6 27 5 0-1-5c1 2 3 3 4 4 1 1 3 2 4 2z m-203-90l-6 0-1 21 0 7c-1-3-2-5-3-7l-9-21-6 0-1 36 5 0 1-21c0-2 0-5-1-8 2 3 3 6 4 8l9 21 6 0 0-21 0-8c1 1 1 3 2 4 0 2 1 3 2 4l8 20 6 0z m37 18c0-4 0-7-1-10-1-2-3-4-5-6-3-2-5-2-7-2-3 0-6 1-8 3-1 1-2 4-2 7 0 4 0 6 1 9 1 3 3 5 5 6 3 2 5 3 8 3 3 0 5-1 7-3 2-2 2-5 2-7z m-5 0c0 1-1 2-1 4-1 1-2 1-4 1-2 0-3 0-4-1-1-2-2-3-3-5 0-2-1-4-1-6 0-2 1-4 1-4 1-1 2-2 4-2 1 0 3 1 4 2 1 1 2 3 3 4 0 2 1 4 1 7z m26 10c2 0 2 0 3-1l-1-5c-1 0-2 1-2 1-2 0-4-1-6-3-2-2-3-4-3-8l-3-12-6 0 6 27 4 0 0-5c1 2 3 3 4 4 2 1 3 2 4 2z m16 0c3 0 5-2 6-5 0 2 1 5 1 6l2 9 6 0-8-38-5 0 1 4c-1-1-3-2-4-3-1-1-3-1-4-1-3 0-4 0-6 2-1 2-2 4-2 7 0 3 1 6 2 9 1 3 3 5 5 7 1 2 4 3 6 3z m-3-23c1 0 3 1 4 2 1 1 2 3 3 5 0 3 1 5 1 7 0 1-1 3-1 3-1 1-2 1-4 1-1 0-2 0-4-1-1-2-2-3-2-6-1-2-2-4-2-6 1-3 2-5 5-5z m45 21c0-4-1-7-4-9-3-2-6-3-11-3l-3 0-3-14-6 0 8 36 8 0c3 0 6-1 8-3 2-1 3-4 3-7z m-17-7l2 0c3 0 5 0 7 1 2 2 2 3 2 6 0 2 0 3-1 4 0 1-2 1-4 1l-3 0z m36 9c1 0 1 0 3-1l-2-5c-1 0-1 1-2 1-2 0-4-1-6-3-1-2-2-4-3-8l-3-12-6 0 6 27 5 0-1-5c1 2 3 3 4 4 2 1 3 2 5 2z m12-28c-3 0-5 2-7 3-2 2-3 5-3 8 0 3 1 6 2 9 1 3 3 5 5 6 2 2 4 2 7 2 3 0 5 0 6-1 2-2 3-3 3-5 0-3-1-6-4-7-3-2-7-3-12-3l-1 0 0-1c0-1 1-3 1-4 1-1 3-1 4-1 1 0 3 0 4 0 1 1 2 1 4 2l0-5c-2 0-3-1-5-1 0-2-2-2-4-2z m4 24c-2 0-3-1-4-2-2-2-3-4-3-6l0 0c3 0 5 0 7 1 2 1 3 2 3 3 0 1 0 2-1 2 0 1-1 2-2 2z m28-15c0-3-1-5-3-6-2-2-4-3-8-3-3 0-5 1-8 2l0 5c3-2 5-3 8-3 1 0 3 1 4 2 1 0 1 1 1 2 0 1 0 2 0 3-1 0-2 1-4 2-2 1-3 2-4 3-1 2-1 3-1 4 0 3 1 5 3 6 1 1 4 2 6 2 4 0 6 0 9-2l-2-4c-2 1-4 2-6 2-1 0-2 0-3-1 0 0-1-1-1-2 0-1 0-1 1-2 0 0 1-1 3-2 2-1 3-2 3-2 1-1 1-1 2-3 0-1 0-2 0-3z m22 0c0-3-1-5-3-6-1-2-4-3-8-3-2 0-5 1-8 2l0 5c3-2 6-3 8-3 2 0 3 1 4 2 1 0 2 1 2 2 0 1-1 2-1 3-1 0-2 1-3 2-3 1-4 2-5 3-1 2-1 3-1 4 0 3 1 5 3 6 1 1 4 2 7 2 3 0 5 0 8-2l-2-4c-2 1-4 2-6 2-1 0-2 0-3-1 0 0-1-1-1-2 0-1 0-1 1-2 0 0 1-1 3-2 2-1 3-2 4-2 0-1 1-1 1-3 0-1 0-2 0-3z m-201-48c0-5 0-8-2-12-2-3-4-5-7-7-3-2-7-3-10-3l-10 0 7 35 9 0c5 0 8-1 11-3 1-2 2-6 2-10z m-19-17c2 0 5 0 7 2 2 1 4 3 5 6 1 2 2 5 2 8 0 3-1 5-3 7-1 2-3 2-6 2l-3 0-6-25z m33-6c-4 0-6 2-8 3-2 2-3 5-3 8 0 3 1 6 2 9 1 3 3 5 5 6 2 2 5 2 7 2 3 0 5 0 7-1 1-2 2-3 2-6 0-2-1-5-4-6-3-2-6-3-11-3l-1 0 0-1c0-1 0-3 1-4 1-1 2-1 4-1 1 0 2 0 3 0 1 1 2 1 4 2l0-5c-2 0-3-1-5-1 0-2-2-2-3-2z m3 24c-1 0-2-1-4-3-1-1-2-3-3-5l1 0c3 0 5 0 6 1 2 1 3 2 3 3 0 1 0 2 0 2-1 1-1 2-3 2z m15-23l-3 27 6 0 1-14c0-3 0-6 0-8 1 1 1 2 2 4 1 2 1 2 2 4l7 14 6 0-14-27c0 0-7 0-7 0z m31-1c-3 0-6 2-7 3-2 2-3 5-3 8 0 3 0 6 1 9 2 3 3 5 6 6 2 2 4 2 7 2 3 0 5 0 6-1 2-2 3-3 3-6 0-2-2-5-4-6-3-2-7-3-12-3l-1 0 0-1c0-1 1-3 1-4 1-1 2-1 4-1 1 0 2 0 4 0 1 1 2 1 4 2l0-5c-2 0-3-1-5-1-1-2-3-2-4-2z m3 24c-1 0-2-1-4-3-1-1-2-3-3-5l1 0c2 0 5 0 6 1 2 1 3 2 3 3 0 1 0 2 0 2-1 1-1 2-3 2z m17-23l-6 0 8 38 6 0z m32 17c0-4-1-7-2-10-1-2-3-4-5-6-2-2-5-2-7-2-3 0-6 1-7 3-2 1-3 4-3 7 0 4 0 6 2 9 1 3 2 5 5 6 2 2 4 3 7 3 4 0 6-1 7-3 2-2 3-4 3-7z m-6 0c0 1 0 2-1 3-1 2-2 2-3 2-2 0-3 0-4-2-2-1-3-2-3-4-1-2-1-4-1-6 0-2 0-4 1-4 0-1 1-2 3-2 2 0 3 1 4 2 1 1 2 3 3 4 1 3 1 4 1 7z m22-18c-3 0-5 2-7 4 0-1 0-2 0-4l-2-12-6 0 8 39 4 0 0-4c2 3 5 5 8 5 3 0 4-1 6-3 1-1 2-4 2-6 0-4-1-7-2-9-1-3-3-6-4-7-2-2-5-3-7-3z m3 23c-1 0-3 0-4-2-1-1-2-2-3-5-1-2-1-4-1-6 0-2 0-3 1-3 0-1 1-1 3-1 2 0 3 0 4 1 1 1 2 3 3 5 1 3 1 5 1 7 0 3-2 4-4 4z m31 5c3 0 6-1 6-5 1 1 3 3 4 4 2 1 3 1 5 1 2 0 4 0 5-1 1-2 1-3 1-6 0-1 0-2 0-4l-4-16-5 0 3 17c1 1 1 2 1 3 0 2-1 3-3 3-2 0-4-1-5-3-2-2-3-5-4-8l-2-11-6 0 4 16c0 1 0 2 0 3 0 2-1 3-2 3-2 0-4-1-6-3-1-2-2-4-3-7l-2-12-6 0 6 27 4 0 0-5c3 2 5 4 9 4z m36-28c-3 0-5 2-7 3-2 2-3 5-3 8 0 3 1 6 2 9 1 3 3 5 5 6 2 2 4 2 7 2 3 0 5 0 6-1 2-2 3-3 3-6 0-2-1-5-4-6-3-2-6-3-12-3l-1 0 0-1c0-1 1-3 1-4 2-1 3-1 4-1 2 0 3 0 4 0 1 1 2 1 4 2l0-5c-2 0-3-1-5-1-1-2-2-2-4-2z m4 24c-2 0-3-1-5-3-1-1-2-3-3-5l1 0c3 0 5 0 7 1 1 1 2 2 2 3 0 1 0 2-1 2 1 1 0 2-1 2z m26-23l4 17c0 1 0 2 0 3 0 2-1 3-2 3-2 0-3 0-4-1-1 0-2-2-3-4-1-1-1-3-2-5l-2-12-6 0 6 27 4 0 0-5c1 1 3 3 4 4 1 1 3 1 4 1 3 0 4-1 5-2 1-1 2-3 2-5 0-1 0-3-1-4l-3-16z m23 4c1 0 2 0 4 1l0-5c-1 0-2-1-3-1-1 0-1 0-3 0-4 0-6 2-6 6 0 1 0 1 0 3l3 14-4 0 1 2 4 3 3 5 3 0-1-5 7 0-1-5-7 0-3-13c0-2 0-2 0-3 0 0 0-1 0-1 1-1 2-1 3-1z m-256 218l-22 0 13 63-18 0 4 18 57 0-4-18-18 0z m52-1c-7 0-13 3-17 7-4 4-6 10-6 17 0 8 1 15 4 21 3 7 7 11 13 14 5 4 11 6 18 6 7 0 14-3 17-7 4-4 7-10 7-17 0-8-2-15-5-21-3-7-7-11-12-15-5-3-12-5-19-5z m9 49c-3 0-6-3-8-8-2-5-3-11-3-17 0-5 1-8 4-8 3 0 6 3 8 8 2 5 4 10 4 17 0 3-1 4-2 6-1 1-2 2-3 2z m56-49c-8 0-14 3-18 7-4 4-6 10-6 17 0 8 2 15 4 21 3 7 7 11 13 14 5 4 11 6 18 6 8 0 14-3 18-7 4-4 6-10 6-17 0-8-2-15-5-21-2-7-6-11-12-15-5-3-11-5-18-5z m8 49c-3 0-5-3-8-8-2-5-3-11-3-17 0-5 2-8 4-8 3 0 6 3 8 8 3 5 4 10 4 17 0 3-1 4-1 6-1 1-2 2-4 2z m50-48l-21 0 19 86 21 0z m60 22c0-7-2-13-7-16-5-4-12-6-21-6-8 0-15 1-19 3l0 17c3-1 6-2 9-4 3 0 6-1 9-1 2 0 4 1 5 1 1 1 2 2 2 3 0 1-1 2-1 4-1 1-4 2-8 4-4 2-6 5-8 8-2 2-3 6-3 10 0 6 2 11 7 15 4 3 11 5 19 5 4 0 8-1 11-1 3-2 7-3 10-5l-7-14c-2 2-5 3-8 4-2 2-4 2-6 2-3 0-4-2-4-4 0-2 0-3 1-3 1-1 3-2 6-3 9-5 13-12 13-19z m33-23c-8 0-14 3-18 7-5 4-6 10-6 18 0 8 1 15 4 21 3 6 8 11 13 14 5 3 11 5 18 5 7 0 12-2 16-5 4-3 6-7 6-12 0-8-3-14-8-18-6-4-15-5-25-5l-4 0 0-1c0-5 3-8 9-8 3 0 6 0 9 1 3 1 5 2 9 4l0-15c-4-2-8-3-11-5-3 0-7-1-12-1z m9 50c-3 0-5-1-7-4-1-2-2-5-3-8l2 0c4 0 6 0 9 2 2 2 3 4 3 6 0 2 0 3-1 3-1 1-2 1-3 1z m54-33c3 0 6 1 10 3l0-16c-5-2-11-3-18-3-5 0-10 1-13 3-3 3-4 7-4 12 0 3 1 6 1 10l5 22-9 0 3 10 12 5 7 13 14 0-3-13 16 0-3-15-16 0-5-22c0-2-1-4-1-5 1-2 2-4 4-4z"/>
<glyph glyph-name="types" unicode="&#65;" d="M384 427l0 85-85 0 0-85-86 0 0 85-85 0 0-85-85 0 0-427 426 0 0 427z m-292-141c0 4 3 8 5 10 1 1 6 3 10 3l9 0c6 0 11-1 12 0 2 2 4 5 5 10l1 6c2 4 3 8 5 9 3 2 7 3 12 3l52 0c6 0 9-2 11-3 1-1 3-4 4-9l2-7c1-6 3-8 5-9 2 0 8 0 16 0l97 0c8 0 10-6 10-13l0-16-162 0c-10 0-17 1-20 0-2-2-7-6-12-15l-62-117z m335-48l-63-124-252 0 64 124c2 4 5 7 7 9 2 1 5 2 11 2l227 0c6 0 9-2 9-3 0-1-1-4-3-8z"/>
<glyph glyph-name="views" unicode="&#66;" d="M384 427l0 85-85 0 0-85-86 0 0 85-85 0 0-85-85 0 0-427 426 0 0 427z m-279-214c0 0 137 187 307 0-1 0-138-192-307 0z m152 56c-32 0-57-26-57-58 0-32 25-57 57-57 32 0 58 25 58 57 1 32-26 58-58 58z m0-95c-21 0-38 17-38 38 0 21 17 38 38 38 22 0 39-17 39-38 0-21-17-38-39-38z"/>
<glyph glyph-name="edit" unicode="&#104;" d="M273 140l-198 200c-14 13-14 35 0 49l55 55c13 13 36 13 47 0l198-202c14-13 14-35 0-47l-54-55c-12-12-34-12-48 0z m138 41l-80-80 116-41z"/>
<glyph glyph-name="duplicate" unicode="&#109;" d="M90 49c-5 0-27 2-42 16-12 10-17 25-17 44l0 290c0 33 27 60 59 60l64 0 0-26-64 0c-18 0-34-15-34-34l0-290c0-12 4-20 9-27 10-10 25-9 25-9l55 0 0-25-55 1c2 0 0 0 0 0z m388 304l-108 108-1-2-142 0c-32 0-60-27-60-60l0-290c0-48 38-61 60-61l191 0c33 0 60 27 60 60z m-34-1l-21 0c-29 0-53 23-53 52l0 21z m8-244c0-19-15-35-34-35l-191 0 0-12 0 12c-10 0-34 4-34 36l0 290c0 19 15 34 34 34l119 0 0-30c0-43 35-77 77-77l31 0 0-218z"/>
<glyph glyph-name="basket" unicode="&#114;" d="M184 413l-75-99 50 0 58 77c-16 2-28 10-33 22z m41-10c2 0 2 0 4 0 13 3 22 15 22 27 0 0 0 0 0 2 0 1 0 3 0 5-4 14-14 22-27 22-2 0-4 0-7 0-14-3-24-17-21-31 0 0 0-1 0-1 4-14 14-23 28-23-2-1 0-1 1-1z m178-89l-75 99c-5-12-17-22-31-24l58-77 48 0z m-120 89c2 0 2 0 4 0 1 0 1 0 3 0 12 0 24 8 27 22 0 0 0 2 0 2 2 13-6 27-20 30-2 0-5 0-7 0-12 0-24-8-27-22 0-2 0-3 0-5 0 0 0 0 0-2 0-10 8-22 20-25z m128-101l-351 0 51-249 288 0 52 249z"/>
<glyph glyph-name="discoverwp" unicode="&#67;" d="M319 333c-7 8-15 17-25 22-11 5-23 9-35 9-8 0-15 0-22 0-5 0-12 0-17 0 0-2 0-6 0-12 0-7 0-14-2-21l0-24-1-19-4-70-1-20-2-24c0-7 0-14 0-20 0-7 0-11 0-12 3 0 8-2 14-2 5 0 12-2 18-2 28-1 52 7 69 26 17 19 27 49 29 89 0 15 0 30-4 44-3 15-10 27-17 36z m-61 150c-125 0-226-102-226-227 0-125 101-225 226-225 124 0 225 100 225 225 0 125-101 227-225 227z m140-230c-2-23-5-41-12-58-7-18-17-31-29-43-12-12-26-21-43-26-15-5-32-8-49-7-19 2-35 2-48 4-14 2-24 2-34 2-7 0-12 0-17 1-6 0-11 0-14 0 2 16 3 33 5 50 2 17 2 36 3 58l2 53c0 18 2 37 2 54 0 4 0 5 0 9-7-2-12-4-17-5 0 0-4-4-5-5l-11-12c-13-16-15-23-22-29 0 0 9 58 16 105 0 4 1 6 1 7 5-8 12-24 17-34 28 5 55 9 84 9 9 0 19 0 31-2 20-2 41-3 58-9 17-5 32-11 44-22 12-10 21-24 27-41 9-15 12-36 11-59z"/>
<glyph glyph-name="otgs" unicode="&#69;" d="M123 265c0-29 5-53 15-72 10-21 26-34 46-45 21-10 43-15 65-15 36 0 67 12 91 38 24 24 35 56 35 92 0 37-11 68-35 92-17 17-40 29-64 34l0 89-59 0 0-91c-12-3-24-6-34-13-21-10-35-26-46-46-9-21-14-41-14-63z m85 52c4 4 7 7 12 11l0-103 60 0 0 104c5-3 10-6 15-12 12-13 17-32 17-56 0-25-5-44-17-56-12-14-25-19-42-19-17 0-31 7-43 19-12 13-17 32-17 56-4 24 3 43 15 56z m183 123l-39-49c41-29 66-77 66-132 0-90-73-162-162-162-89 0-162 74-162 162 0 52 22 96 60 125l-40 51c-51-41-83-104-83-174 0-126 100-227 225-227 125 0 225 101 225 225 0 76-36 140-90 181z"/>
<glyph glyph-name="wrench" unicode="&#70;" d="M63 365l50-49c20-21 56-19 78 3 22 22 24 58 4 79l-50 49c10 4 21 4 31 4 65 0 118-53 118-118 0-19-4-36-12-50l158-157c14-13 14-37-1-53-16-15-40-17-53-1l-159 157c-15-7-32-12-50-12-64 0-117 53-117 118 0 10 1 20 3 30z m330-264c0-11 8-21 20-21 10 0 20 9 20 21 0 10-8 20-20 20-12 0-20-10-20-20z"/>
<glyph glyph-name="link" unicode="&#71;" d="M299 398l-60-58c-12-12-12-29 0-41l10-11 63 64 38-38-63-63 10-10c12-12 29-12 41 0l60 59c12 12 12 29 0 41l-60 60c-10 9-29 9-39-3z m-69-193c-6-7-18-7-27 0-7 7-7 19 0 27l80 80c7 7 19 7 28 0 6-7 6-18 0-27z m-17-91l60 60c12 12 12 29 0 41l-10 10-63-63-38 38 63 63-12 10c-12 12-29 12-41 0l-59-60c-12-12-12-29 0-41l59-59c12-11 31-11 41 1z"/>
<glyph glyph-name="envelope-o" unicode="&#72;" d="M413 365l-328 0 0-218 342 0 0 218z m-14-13l-131-132c-7-7-17-7-22 0l-133 132z m-300-6l89-88-89-89z m10-186l87 87 38-37c5-5 13-9 20-9 7 0 16 4 21 9l37 37 87-87z m304 9l-89 89 89 88z"/>
<glyph glyph-name="user" unicode="&#73;" d="M386 121l-258-2c0 0-2 14-2 28 0 13 14 17 14 17 17 8 70 29 73 31l0 13 7 2c0 0 2 22 2 26 0 0-9 18-12 29 0 0-7 0-9 6-1 9 0 14-1 19-2 5 3 12 7 10 0 0-9 41 0 53 5 12 8 33 49 40 0 0 24-4 24-7 0 0 20-14 27-34 4-14 2-41 0-48 0 0 7 1 5-7-1-12-1-36-10-31 0 0 0-25-8-30 0 0-2-21 1-21l5 0c0 0 2-17 7-20 0 0 67-23 75-33 7-12 4-41 4-41z"/>
<glyph glyph-name="wpml-cms-nav" unicode="&#74;" d="M232 104l-152 152 152 152m48-304l152 152-152 152"/>
<glyph glyph-name="wpml-media" unicode="&#75;" d="M335 425l46 0 0-340-46 0z m-103-67l46 0 0-271-46 0z m-101-68l46 0 0-203-46 0z"/>
<glyph glyph-name="wpml-string-translation" unicode="&#76;" d="M294 131c-18 0-35 4-52 11-41 17-80 37-117 58-19 10-40 20-58 30-9 4-11 14-7 23 3 8 13 12 22 6 19-10 37-20 58-30 37-21 77-41 116-57 31-13 63-10 89 7 29 19 44 50 44 87 0 46-37 84-84 84-35 0-63-29-63-63 0-26 23-48 48-48 19 0 34 15 34 34 0 14-12 26-25 26-9 0-16 6-16 15 0 9 7 15 16 15 30 0 56-25 56-56 0-37-31-66-67-66-44 0-80 35-80 80 0 53 43 95 96 95 63 0 116-51 116-116 0-46-22-89-58-112-21-16-45-23-68-23z"/>
<glyph glyph-name="wpml-translation-management" unicode="&#77;" d="M381 292c-12 0-24-7-29-19l-135 0c-4 15-12 27-24 36l51 22c0 0 0-2 0-2 3-17 21-29 38-25 17 3 29 20 25 37-3 17-20 29-37 26-11-2-17-9-23-15l-76-33c-4 2-9 2-14 2-34 0-60-27-60-60 0-32 28-60 60-60 9 0 17 2 24 6l118-45c5-7 12-14 20-15 17-4 34 8 38 25 3 17-9 35-26 38-17 3-34-9-37-26 0-1 0-1 0-3l-96 36c10 10 17 24 19 41l129 0c2-16 16-29 33-29 17 0 32 13 32 32 0 19-12 31-30 31z"/>
<glyph glyph-name="picture" unicode="&#78;" d="M427 116l-342 0 0 280 342 0z m-311 31l282 0 0 218-282 0z m150 25c33 0 79 0 96 0l0 38-65 92-63-89-41 40-53-50 0-29c34-2 104-2 126-2"/>
<glyph glyph-name="toolset-training" unicode="&#79;" d="M384 427l0 85-85 0 0-85-86 0 0 85-85 0 0-85-85 0 0-427 426 0 0 427z m-33-284c0-19-17-29-38-39 0 0-29-14-58-14-28 0-57 14-57 14-24 11-39 19-39 39l0 51 66-23c9-3 20-5 30-5 11 0 22 2 30 5l66 23z m33-3l6 21c0 3 2 5 5 5 3 0 5-2 5-5l6-21z m22 103l0-60c0-6-5-10-11-10-5 0-10 4-10 10l0 52-106-36c-13-6-35-6-48 0l-153 55 28 11 125 53c13 6 35 6 48 0l125-53 30-12z"/>
<glyph glyph-name="access-title" unicode="&#80;" d="M155 101l-19 0-5-12-16 0 30 60 20 0 5-60-15 0z m-13 12l12 0 0 17 0 4c0 2 0 4 0 6-1-3-2-5-3-7z m55-25c-6 0-10 2-13 6-2 3-4 7-4 14 0 5 1 10 3 14 2 5 5 8 9 11 3 2 8 3 13 3 5 0 10-1 15-3l-5-12c-4 2-7 3-10 3-2 0-3-1-4-2-2-1-3-3-4-6-1-3-2-5-2-8 0-2 1-4 2-5 1-1 2-2 4-2 1 0 3 0 5 1 2 0 4 1 6 3l0-13c-2-1-4-2-7-3-2 0-5-1-8-1z m42 0c-6 0-10 2-13 6-3 3-4 7-4 14 0 5 0 10 3 14 2 5 5 8 9 11 3 2 8 3 13 3 5 0 10-1 15-3l-6-12c-3 2-6 3-9 3-2 0-3-1-4-2-2-1-3-3-4-6-1-3-2-5-2-8 0-2 1-4 2-5 1-1 2-2 4-2 1 0 3 0 5 1 2 0 4 1 6 3l0-13c-2-1-5-2-7-3-2 0-5-1-8-1z m43 0c-6 0-10 2-13 5-4 3-5 8-5 14 0 5 1 11 3 15 3 5 6 8 9 11 5 2 9 3 14 3 6 0 10-1 13-3 2-3 4-6 4-10 0-5-2-9-6-12-5-3-11-4-19-4l-2 0 0-1c0-4 2-6 6-6 3 0 4 1 7 1 2 0 4 2 7 3l0-11c-4-1-6-3-9-3-2-1-5-2-9-2z m7 38c-2 0-4-1-5-3-1-2-2-4-3-7l2 0c2 0 5 1 7 2 1 1 2 3 2 5 0 1-1 1-1 2-1 1-1 1-2 1z m56-21c0-5-1-10-5-12-3-3-9-5-15-5-6 0-11 1-15 3l0 13c3-2 5-3 7-3 3 0 5-1 7-1 2 0 3 1 4 1 1 0 2 1 2 2 0 1-1 2-1 3-1 1-3 2-6 3-2 1-5 3-6 5-1 3-2 5-2 8 0 5 2 8 5 11 3 2 8 3 14 3 3 0 6 0 9-1 2 0 5-1 7-3l-5-10c-2 1-4 2-6 3-2 0-3 1-5 1-2 0-3-1-3-3 0-1 0-2 1-2 1 0 3-1 5-2 5-4 8-8 8-14z m42 0c0-5-2-10-5-12-3-3-9-5-15-5-6 0-11 1-15 3l0 13c3-2 5-3 7-3 3 0 5-1 7-1 2 0 3 1 4 1 1 0 1 1 1 2 0 1 0 2 0 3-1 1-3 2-6 3-2 1-5 3-6 5-2 3-2 5-2 8 0 5 2 8 5 11 3 2 8 3 14 3 3 0 6 0 8-1 3 0 6-1 8-3l-5-10c-2 1-4 2-6 3-2 0-4 1-5 1-2 0-3-1-3-3 0-1 0-2 1-2 1 0 3-1 4-2 6-4 9-8 9-14z m-132 286c-13 0-25-11-25-25l0-16 50 0 0 16c0 14-11 25-25 25z m82 65l0 56-56 0 0-56-56 0 0 56-56 0 0-56-55 0 0-279 279 0 0 279z m-20-220c0-7-5-12-12-12l-101 0c-7 0-13 5-13 12l0 101c0 7 6 13 13 13l7 0 0 16c0 25 20 45 44 45 24 0 44-20 44-45l0-16 5 0c7 0 13-6 13-13z"/>
<glyph glyph-name="views-title" unicode="&#81;" d="M178 149l17 0-30-60-18 0-4 60 16 0 1-33 0-2c0-3 0-7-1-10l1 0c0 2 1 4 2 7 0 2 1 4 2 6z m27-60l-16 0 10 46 16 0z m-4 57c0 2 1 5 2 6 2 2 4 3 7 3 3 0 5-1 6-2 1-1 2-2 2-4 0-3-1-5-2-7-2-1-4-2-7-2-5 0-8 1-8 6z m36-58c-5 0-10 2-13 5-3 3-5 8-5 14 0 5 1 11 3 15 3 5 6 8 10 11 4 2 8 3 14 3 5 0 9-1 12-3 3-3 5-6 5-10 0-5-3-9-7-12-4-3-10-4-19-4l-2 0 0-1c0-4 2-6 7-6 2 0 4 1 6 1 2 0 5 2 7 3l0-11c-3-1-6-3-8-3-3-2-6-2-10-2z m7 38c-2 0-3-1-5-3-1-2-2-4-3-7l2 0c3 0 5 1 7 2 2 1 2 3 2 5 0 1 0 1-1 2 0 1-1 1-2 1z m54-37l1 18c0 2 0 5 1 8 0 4 0 7 1 9l-1 0c-2-6-3-11-5-16l-8-20-17 0-2 47 15 0 0-21c0-5 0-8-1-11l1 0c1 5 2 9 3 12l7 20 18 0-1-20c0-3 0-7-1-12l0 0c0 1 1 2 1 2 0 1 0 3 1 6 1 3 5 11 10 24l16 0-22-47-17 0z m72 16c0-5-2-10-6-12-3-3-8-5-15-5-6 0-11 1-14 3l0 12c2-1 4-2 7-2 2-1 4-1 6-1 2 0 3 0 4 1 1 0 2 1 2 2 0 1-1 2-1 2-1 1-3 2-5 3-3 2-5 4-7 6-1 2-2 5-2 7 0 5 2 9 5 11 4 3 8 4 14 4 4 0 6-1 9-1 2 0 5-2 7-3l-5-11c-2 2-4 3-5 3-2 1-4 1-6 1-1 0-3-1-3-3 0-1 1-1 2-1 0-1 2-2 4-3 6-3 9-7 9-13z m-30 351l0 56-56 0 0-56-56 0 0 56-56 0 0-56-56 0 0-279 280 0 0 279z m-183-140c0 0 90 122 201 0-1 0-90-126-201 0z m100 37c-21 0-38-17-38-38 0-21 17-38 38-38 21 0 38 17 38 38 0 21-17 38-38 38z m0-63c-14 0-25 12-25 26 0 14 11 25 25 25 14 0 25-11 25-25 0-14-11-26-25-26z"/>
<glyph glyph-name="cred-title" unicode="&#82;" d="M340 456l0 56-56 0 0-56-56 0 0 56-56 0 0-56-56 0 0-279 280 0 0 279z m-21-215c0-1 0-1-1-2 0 0 0-1 0-1-1-1-1-1-1-2 0 0 0 0-1-1 0 0-1-1-1-1-1-1-1-1-2-2l-1 0c0 0-1-1-2-1-1-1-2-2-3-2 0 0-1 0-2-1l0 0c-1-1-1-1-2-1l0 0c-2 0-3-1-4-1l-1 0c-1-1-2-1-4-2l0 0c-2 0-4-1-5-1l-1 0c-2-1-3-1-5-1l-1 0c-1 0-3 0-5 0l-1 0c-1 0-3-1-4-1l-1 0c-2 0-4 0-6 0l-1 0c-1 0-3 0-4 0l-1 0c-1 0-2 0-2 0-1 0-2 0-2 0l-1 0c-1 0-3 0-4 0l-1 0c-1 0-2 0-3 0l-2 0c-1 0-2 1-3 1l-1 0c-1 0-2 0-3 0l-1 0c-1 0-2 0-4 0-1 0-2 1-3 1l-1 0c-2 1-3 1-4 1l-1 0c-1 1-3 1-4 2l-1 0c0 0-1 0-2 0l0 1c-1 0-1 0-2 0l0 1-1 0-1 0-2 1-1 0-1 1-1 1-2 1-1 0-3 2-4 4-1 1 0 0-1 1 0 1 0 1 0 1c0 1 0 1 0 2l0 36c0 0 0-1 0-1l0-3 0 0 1-1 1-1 1-1 0 0 1-1 1-1 1-1 1 0 1-1 1-1 1 0 1 0 1-1 2-1 1 0 1-1 2-1 1 0c0 0 1-1 1-1l1 0c0 0 1-1 2-1l1 0c1 0 3-1 4-1l0 0c2-1 3-1 4-1l1 0c1-1 2-1 4-1l0 0c2 0 3-1 4-1l1 0c1 0 2 0 3 0l1 0c2 0 2-1 4-1l1 0c1 0 2 0 3 0l1 0c1 0 3 0 4 0 1 0 2 0 3 0 1 0 2 0 3 0 1 0 3 0 4 0l1 0c2 0 4 0 6 0l1 0c1 0 3 1 4 1l1 0c2 0 4 0 5 0l1 0c1 1 3 1 5 1l1 0c1 1 3 1 5 2l0 0c2 0 3 1 4 1l1 0c1 0 2 1 4 1l0 1c0 0 1 0 1 0l1 1c1 0 2 0 2 1 1 0 3 1 3 2 1 0 2 0 3 1l0 0c1 1 2 1 2 2 1 0 1 1 2 1l0 1c0 0 1 1 1 1 0 1 0 1 1 1l0 1c0 0 0 1 0 1 0 1 0 1 1 2l0 1 0-36z m0 52c0-1 0-1-1-2 0 0 0-1 0-1-1 0-1-1-1-1 0-1 0-1-1-2 0 0-1-1-1-1-1-1-1-1-2-2l-1 0c0 0-1-1-2-1-1 0-2-1-3-2 0 0-1 0-2-1l-1 0c0-1-1-1-1-1l-1 0c-1 0-2-1-4-1l0 0c-2-1-3-1-4-2l-1 0c-1 0-3 0-5-1l0 0c-2 0-4-1-5-1l-1 0c-2 0-3 0-5 0l-1 0c-1 0-3-1-5-1l-1 0c-1 0-3 0-5 0l-1 0c-1 0-3 0-5 0l0 0c-1 0-2 0-3 0 0 0-1 0-2 0l0 0c-2 0-3 0-5 0l-1 0c-1 0-2 0-3 0l-1 0c-1 0-2 1-4 1l0 0c-1 0-2 0-4 0l0 0c-2 0-3 1-4 1-2 0-3 0-4 1l-1 0c-1 0-3 0-4 0l-1 0c-1 1-2 1-4 2l0 0c-1 0-1 0-2 0l-1 1c0 0-1 0-1 0l-1 1 0 0-3 1-1 1-2 1-1 0-2 1-1 0-1 1-1 1-2 1 0 1-1 0 0 1-2 1 0 1-1 0 0 1 0 1 0 1 0 2c0 0 0 0 0 1l-1 36c0 0 0-1 0-1l0-2 3-4 1 0 0-1 2-2 1 0 1 0 2-1 1-1 2-1 1 0 1-1 1-1 2-1 1 0c1 0 1 0 2 0l1-1c0 0 0 0 1 0l1-1c2 0 3-1 4-1l1 0c1-1 2-1 4-1l1 0c1-1 2-1 3-1l1 0c1 0 2-1 4-1l0 0c1 0 2 0 4 0l1 0c1 0 2-1 3-1l1 0c1 0 2 0 4 0l0 0c2 0 3 0 5 0 1 0 2 0 2 0 1 0 2 0 3 0 2 0 4 0 5 0l1 0c2 0 4 0 5 0l1 0c2 0 4 1 5 1l1 0c1 0 3 0 5 0l0 0c2 1 4 1 6 1l0 0c2 1 3 1 5 2l1 0c1 0 2 1 4 1l0 0c2 1 3 1 4 2l1 0c0 0 0 0 1 0l1 1c0 0 1 0 2 1 1 0 2 1 3 2 1 0 1 1 2 1l1 1c0 0 1 0 2 1 0 0 1 1 1 1l1 1c0 0 0 1 0 1 1 1 1 1 1 2l0 0c0 1 1 1 1 1 0 1 0 1 0 2l0 1 1-36z m0 52c0-1 0-1-1-2 0 0 0-1 0-1-1-1-1-1-1-2 0 0 0-1-1-1 0-1-1-1-1-2-1 0-1 0-2-1l-1 0c0 0-1-1-2-1-1-1-2-2-3-2 0-1-1-1-2-1l-1-1c0 0-1 0-1 0l-1 0c-1-1-2-1-4-1l0 0c-2-1-3-1-4-2l-1 0c-1 0-3-1-5-1l0 0c-2-1-4-1-5-1l-1 0c-2-1-3-1-5-1l-1 0c-1 0-3 0-5 0l-1 0c-1 0-3-1-5-1l-1 0c-1 0-3 0-5 0l0 0c-1 0-2 0-3 0 0 0-1 0-2 0l0 0c-2 0-3 0-5 0l-1 0c-1 0-2 0-3 1l-1 0c-1 0-2 0-4 0l0 0c-1 0-2 1-4 1l0 0c-2 0-3 0-4 0-2 0-3 1-4 1l-1 0c-1 1-3 1-4 1l-1 0c-1 1-2 1-4 2l0 0c-1 0-1 0-2 0l-1 0c0 0-1 1-1 1l-1 0 0 0-1 1-1 0-1 1-1 0-2 1-1 1-1 0-1 1-1 0-1 1-1 0-1 1-2 2 0 0-1 1 0 0-1 1 0 1-1 0 0 1 0 0 0 1 0 2c0 1 0 1 0 2l-1 31c0 0 0 0 0 1 0 0 0 0 0 0l0 4c0 0 0-1 0-1l0-1c3 13 29 23 62 22 33 0 60-11 62-24 0 1 0 1 0 2l0 1 1-37z m-134-209c-3 0-5-1-8-3-2-2-4-5-5-9-2-3-2-8-2-12 0-4 1-6 2-8 2-2 4-3 7-3 2 0 4 0 7 1 2 0 5 1 8 3l0-13c-5-3-12-4-18-4-7 0-13 2-16 6-4 4-6 10-6 17 0 8 1 14 4 20 3 6 7 11 11 14 5 3 11 4 17 4 7 0 14-1 19-5l-6-13c-2 2-4 3-7 4-3 1-4 1-7 1z m39-25l-5-22-16 0 13 59 16 0c7 0 12-1 16-4 3-3 5-7 5-12 0-4-1-8-3-11-1-3-4-6-8-7l9-21 2-4-17 0-8 22z m2 12l2 0c3 0 5 1 6 2 2 2 2 4 2 6 0 2 0 3-1 4-1 1-2 1-4 1l-2 0z m67-34l-35 0 12 59 36 0-3-13-20 0-1-9 18 0-3-13-18 0-3-11 20 0z m65 37c0-7-1-14-4-20-3-5-7-10-12-13-5-3-11-5-18-5l-19 0 12 60 18 0c7 0 13-2 17-6 4-3 6-8 6-16z m-32-24c3 0 6 1 8 3 3 2 4 5 6 9 1 3 2 7 2 12 0 3-1 6-3 8-1 1-3 2-6 2l-3 0-7-33 3 0z"/>
<glyph glyph-name="layouts-title" unicode="&#83;" d="M95 89l13 59 16 0-10-46 20 0-3-13z m83 0l-12 0 0 5 0 0c-2-2-4-4-5-5-2-1-4-1-6-1-5 0-8 1-10 5-3 3-3 7-3 13 0 4 0 9 2 15 2 5 5 8 8 11 3 3 6 4 10 4 2 0 4-1 6-1 2-1 3-3 5-6l0 0 2 6 13 0z m-16 12c1 0 2 1 3 2 2 2 3 4 3 7 0 3 1 5 1 8 0 2-1 3-1 4 0 1-1 1-2 1-2 0-4-2-6-5-2-3-2-7-2-11 0-4 1-6 4-6z m30 34l16 0 2-22 0-6 0 0c1 3 2 6 2 7 1 0 4 8 10 22l17 0-27-52c-3-5-6-9-10-11-3-2-7-3-12-3-2 0-5 0-7 0l0 13c2-1 3-1 5-1 2 0 4 1 6 2 1 1 3 2 4 4l1 2z m64-47c-6 0-10 1-13 5-3 3-5 7-5 13 0 5 1 10 4 15 2 5 5 8 9 11 4 2 8 3 14 3 5 0 10-1 13-4 3-3 5-8 5-13 0-6-1-11-4-16-2-4-5-8-9-10-4-3-9-4-14-4z m7 36c-3 0-5-2-6-5-1-4-2-9-2-13 0-4 1-6 3-6 2 0 4 2 5 6 2 3 3 8 3 13 0 2-1 3-1 4-1 1-2 1-2 1z m42-20c0-1 1-2 1-3 1 0 2 0 3 0 1 0 3 0 4 3 1 2 2 5 3 9l5 22 16 0-10-47-13 0 1 7-1 0c-1-2-3-4-5-6-2-1-5-1-7-1-4 0-7 0-9 3-3 3-3 6-3 10 0 3 0 6 0 9l6 25 15 0-5-25c0-2-1-4-1-6z m56-3c2 0 4 0 7 2l0-12c-4-2-8-3-14-3-4 0-7 1-9 3-2 2-3 4-3 8 0 2 0 5 1 8l3 16-7 0 2 8 9 4 6 10 10 0-2-10 12 0-3-12-11 0-4-15c0-3 0-4 0-5 0-1 1-2 3-2z m51 4c0-5-1-10-5-12-3-3-9-5-15-5-6 0-11 1-15 3l0 13c3-2 5-3 7-3 3 0 5-1 7-1 2 0 3 1 4 1 1 0 2 1 2 2 0 1-1 2-1 3-1 1-3 2-5 3-3 1-6 3-7 5-1 3-2 5-2 8 0 5 2 8 5 11 4 2 8 3 14 3 3 0 6 0 9-1 2 0 5-1 7-3l-5-10c-2 1-4 2-6 3-2 0-3 1-5 1-2 0-3-1-3-3 0-1 0-2 1-2 1 0 3-1 5-2 5-4 8-8 8-14z m-72 351l0 56-56 0 0-56-56 0 0 56-56 0 0-56-56 0 0-279 280 0 0 279z m-137-242l-51 0 0 127 51 0z m155 0l-142 0 0 127 142 0z m0 140l-206 0 0 54 206 0z"/>
<glyph glyph-name="types-title" unicode="&#84;" d="M165 89l-16 0 10 46-13 0 2 13 42 0-2-13-13 0z m24 46l16 0 2-22 0-6 0 0c1 3 2 6 2 7 0 0 4 8 10 22l17 0-27-52c-3-5-6-9-10-11-4-2-8-3-12-3-3 0-5 0-7 0l0 12c2-1 3-1 5-1 2 0 4 1 6 2 1 1 3 2 4 5l1 1z m68-47c-3 0-7 2-9 6l0 0c-1-5-1-10-3-15l-2-11-15 0 14 67 12 0 0-5 0 0c3 4 6 6 11 6 4 0 7-1 10-5 2-3 4-7 4-12 0-6-1-11-3-16-2-5-5-9-7-11-3-3-8-4-12-4z m2 35c-2 0-3-1-4-2-1-1-2-4-3-7 0-2-1-5-1-7 0-2 1-4 1-5 1-1 2-1 3-1 1 0 3 1 4 2 1 2 2 4 3 6 0 3 1 5 1 8-1 4-2 6-4 6z m44-35c-5 0-10 1-13 5-3 3-5 8-5 13 0 6 1 11 4 15 2 5 5 8 9 11 4 3 8 4 14 4 5 0 9-1 12-4 3-2 5-5 5-9 0-6-3-10-7-13-4-2-10-4-19-4l-2 0 0 0c0-5 2-6 7-6 2 0 4 0 6 1 2 0 5 1 7 3l0-11c-3-2-6-3-8-4-3-1-6-1-10-1z m7 38c-2 0-3-1-5-3-1-2-2-4-2-7l1 0c3 0 5 1 7 2 2 1 2 3 2 5 0 1 0 1-1 2 0 1-1 1-2 1z m57-21c0-5-2-10-5-12-4-3-9-5-16-5-6 0-10 1-14 3l0 13c2-2 5-3 7-3 2 0 4-1 6-1 2 0 4 1 5 1 0 0 1 1 1 2 0 1-1 2-1 3-1 1-2 2-5 3-3 1-5 3-7 5-1 3-1 5-1 8 0 5 1 8 5 11 3 2 8 3 14 3 3 0 6 0 8-1 2 0 5-1 7-3l-5-10c-2 1-3 2-5 3-2 0-4 1-5 1-2 0-4-1-4-3 0-1 1-2 2-2 1 0 2-1 4-2 6-4 9-8 9-14z m-27 351l0 56-56 0 0-56-56 0 0 56-56 0 0-56-56 0 0-279 280 0 0 279z m-191-92c0 3 1 6 3 6 1 1 4 2 7 2l5 0c4 0 7 0 8 1 2 1 3 3 3 6l1 4c1 3 2 5 4 6 1 1 4 2 8 2l34 0c3 0 5-1 7-2 0-1 1-3 2-6l1-5c1-3 2-5 4-5 1-1 5-1 10-1l64 0c5 0 7-3 7-8l0-10-107 0c-7 0-11 0-13-1-1-1-5-3-8-9l-40-77z m219-31l-41-82-165 0 42 82c2 3 3 4 5 5 1 1 3 2 7 2l148 0c4 0 6-1 6-2 0-1-1-2-2-5z"/>
<glyph glyph-name="module-manager-title" unicode="&#85;" d="M127 89l0 43 0 0c-2-11-3-18-4-21l-5-22-14 0 12 60 22 0 0-42 0 0 20 42 21 0-13-60-14 0 4 23c2 6 3 12 5 17l0 3 0 0-20-43z m74-1c-6 0-11 2-13 5-3 3-5 8-5 13 0 6 1 11 3 15 3 5 5 9 9 11 5 3 9 4 14 4 6 0 11-1 13-5 3-3 5-7 5-13 0-5-1-10-3-15-2-5-5-9-9-11-5-2-9-4-14-4z m6 37c-2 0-4-2-5-6-2-4-3-8-3-13 0-4 1-5 3-5 3 0 5 1 6 5 1 4 2 8 2 13 0 2 0 3-1 4 0 1-1 2-2 2z m47 11c2 0 4 0 5-1 2-1 3-2 5-5l0 0 0 1c0 4 1 7 1 9l3 12 15 0-13-64-13 0 1 6-1 0c-1-3-3-4-5-5-2-1-3-1-6-1-4 0-7 1-10 4-2 3-3 8-3 13 0 5 1 10 3 15 2 5 5 9 7 12 3 3 7 4 11 4z m-1-35c2 0 3 1 4 3 1 1 2 4 3 6 0 3 1 5 1 8 0 4-1 6-4 6-1 0-2-1-3-2-1-1-3-4-4-7-1-2-1-5-1-7 1-5 2-7 4-7z m48 4c0-2 0-2 1-3 0-1 1-1 2-1 1 0 3 1 4 3 2 3 2 5 3 9l5 22 16 0-10-46-12 0 0 6 0 0c-2-2-4-4-6-5-1-1-4-2-7-2-4 0-7 1-9 4-2 2-3 5-3 9 0 3 0 7 1 10l5 24 16 0-5-25c-1-2-1-4-1-5z m49-16l-16 0 13 64 16 0z m32-1c-5 0-10 2-13 5-4 3-5 8-5 14 0 5 1 11 3 15 3 5 6 8 10 11 4 2 8 3 14 3 5 0 9-1 12-3 2-3 4-6 4-10 0-5-2-9-6-12-4-3-10-4-19-4l-2 0 0-1c0-4 2-6 6-6 3 0 5 1 7 1 2 0 5 2 7 3l0-11c-3-1-6-3-9-3-2-1-6-2-9-2z m7 38c-2 0-4-1-5-3-1-2-2-4-3-7l2 0c2 0 5 1 7 2 1 1 2 3 2 5 0 1-1 1-1 2 0 1-1 1-2 1z m-290-102l0 43-1 0c-2-11-3-18-4-21l-4-22-15 0 13 60 21 0 0-43 1 0 19 43 22 0-13-60-15 0 5 23c1 6 3 12 4 17l1 3-1 0-19-43z m92 0l-12 0 0 5 0 0c-2-2-4-3-5-4-2-1-4-2-6-2-5 0-8 2-10 5-3 3-3 7-3 13 0 5 0 10 2 15 2 5 5 9 8 11 3 3 6 4 10 4 2 0 4 0 6-1 2-1 3-3 5-5l0 0 3 5 12 0z m-17 12c1 0 3 1 4 3 1 1 2 3 3 6 0 3 1 5 1 8 0 2-1 3-1 4-1 1-2 2-3 2-2 0-3-2-5-5-2-4-3-8-3-12 1-4 2-6 4-6z m60 19c0 2 0 2-1 3 0 1-1 1-2 1-2 0-3-1-4-3-2-2-3-5-4-9l-4-23-16 0 10 47 12 0 0-7 0 0c2 3 4 5 5 6 2 1 5 2 8 2 4 0 7-2 9-4 2-2 3-6 3-10 0-3-1-6-1-9l-5-25-16 0 5 25c1 3 1 5 1 6z m60-31l-12 0 0 5 0 0c-2-2-4-3-6-4-1-1-3-2-6-2-4 0-7 2-9 5-3 3-4 7-4 13 0 5 1 10 3 15 2 5 5 9 8 11 2 3 6 4 10 4 2 0 4 0 6-1 2-1 3-3 5-5l0 0 2 5 13 0z m-17 12c1 0 3 1 4 3 1 1 2 3 2 6 1 3 1 5 1 8 0 2 0 3-1 4 0 1-1 2-2 2-2 0-4-2-5-5-2-4-3-8-3-12 1-4 2-6 4-6z m78 35l-2-9-6-2c0-1 0-2 0-4 0-5-2-9-5-12-4-4-8-5-14-5-2 0-4 0-5 1 0-1-1-1-1-1-1-1-1-1-1-2 0-1 2-2 5-2l5-1c5 0 9-2 11-4 2-2 3-4 3-8 0-6-2-10-7-13-5-3-11-5-20-5-5 0-10 1-14 3-3 3-5 6-5 9 0 3 1 5 3 7 2 2 5 4 9 4-1 1-2 2-2 3-1 1-1 2-1 3 0 2 0 4 2 5 1 2 3 3 6 4-4 3-6 7-6 12 0 5 2 10 6 13 3 2 8 4 14 4 2 0 3 0 5 0 1-1 2-1 3-1l17 0z m-42-53c0-2 2-4 7-4 3 0 6 1 8 2 2 1 2 2 2 3 0 1 0 2-1 2-1 1-2 1-5 1l-4 1c-3-1-4-1-5-2-2-1-2-2-2-3z m12 35c0-3 1-4 3-4 2 0 3 1 4 3 1 2 1 4 1 6 0 3-1 4-2 4-1 0-2-1-3-1-1-1-1-3-2-4 0-2-1-3-1-4z m48-30c-5 0-10 2-13 5-3 3-5 8-5 13 0 6 1 12 3 16 3 4 6 8 10 10 4 3 8 4 14 4 5 0 9-1 12-4 3-2 4-5 4-9 0-5-2-10-6-12-4-3-10-5-19-5l-2 0 0 0c0-4 2-6 6-6 3 0 5 0 7 1 2 0 5 2 7 3l0-11c-3-1-6-3-8-3-3-1-6-2-10-2z m7 38c-2 0-3-1-5-3-1-2-2-4-3-7l2 0c3 0 5 1 7 2 2 1 2 3 2 5 0 1 0 1-1 2 0 1-1 1-2 1z m57 10c1 0 3 0 3 0l-3-16c-1 0-3 1-5 1-3 0-5-1-7-3-1-2-2-5-3-9l-4-20-16 0 9 46 13 0-1-8 1 0c1 4 3 5 5 7 2 1 5 2 8 2z m-97 385l0 56-56 0 0-56-56 0 0 56-56 0 0-56-56 0 0-279 280 0 0 279z m-93-249l-85 49 0 91 85-51z m102 49l-85-48 0 86 85 51z m0 108l-92-54-94 55 93 54z"/>
<glyph glyph-name="access" unicode="&#118;" d="M259 327c-21 0-38-17-38-38l0-24 76 0 0 24c0 21-18 38-38 38z m125 100l0 85-85 0 0-85-86 0 0 85-85 0 0-85-85 0 0-427 426 0 0 427z m-30-336c0-11-8-19-19-19l-154 0c-11 0-20 8-20 19l0 154c0 11 9 20 20 20l10 0 0 24c0 37 31 68 68 68 37 0 67-31 67-68l0-24 8 0c11 0 19-9 19-20l0-154z"/>
<glyph glyph-name="bullhorn" unicode="&#86;" d="M401 316c-32 73-83 130-109 119-44-18 26-103-189-191-19-8-24-38-16-56 8-18 33-36 52-29 3 2 15 6 15 6 13-18 27-8 32-19l23-53c5-10 15-20 22-17l41 16c7 2 12 9 10 16-1 1-1 2-1 2-3 7-16 9-20 18-3 8-15 34-18 43-5 11 5 21 19 22 98 10 117-50 150-37 26 11 21 86-11 160z m-11-120c-6-3-45 28-69 85-25 58-22 110-16 113 6 2 43-35 68-92 25-58 23-104 17-106z"/>
<glyph glyph-name="comment" unicode="&#87;" d="M79 58l0 24c1 35 27 65 63 69 1 0 2 0 3-1 34-24 80-24 114 0 1 1 2 1 4 1 35-4 62-34 62-69l0-24m-196 171c0 41 33 73 73 73 40 0 73-32 73-73 0-40-33-72-73-72-40 0-73 32-73 72z m296 213l-144 0c-10 0-18-8-18-18l0-84c0-10 8-18 18-18l0 0 0-42c0-2 2-4 4-4 1 0 2 0 2 1l41 44 3 1 94 0c10 0 18 8 18 18l0 84c0 10-8 18-18 18z"/>
<glyph glyph-name="quote" unicode="&#88;" d="M395 290c0 77-62 139-139 139-77 0-139-62-139-139 0-66 47-122 109-135l0-63c0-5 4-9 9-9 3 0 5 1 7 3l109 102c0 0 0 0-1 0 28 26 45 62 45 102z m-121 4l0 48 47 0 0-41c0-7-1-14-2-20-2-6-5-12-8-17-7-10-15-19-24-26l-13 11c14 11 24 27 26 44l-26 0z m-59-56c0 0 0 0 0 0l-13 11c14 11 24 27 26 44l-26 0 0 49 47 0 0-41c0-7-1-14-3-20-1-6-4-12-7-18-7-9-15-18-24-25z"/>
<glyph glyph-name="star" unicode="&#90;" d="M262 433l45-108 118-10c5-1 9-5 8-11 0-2-1-4-3-6l-89-77 27-115c1-5-2-9-7-11-3 0-5 0-7 2l-101 60-101-60c-4-3-10-2-12 3-2 2-2 4-2 7l27 114-89 77c-4 4-4 10-1 13 2 2 4 3 6 4l118 10 46 108c1 5 7 7 12 5 2-1 4-3 5-5z"/>
<glyph glyph-name="wpml" unicode="&#68;" d="M374 22c-6 4-6 4-6 4-6 3-6 16-6 22 0 6 0 10 0 16 0 3-4 10-7 13-3 6-13 9-19 9-16 0-26-9-29-28 0-13 3-26 10-29 3-3 3-3 6-7 13-12 35-19 55-19 6 0 16 0 22 3 16 7 29 23 35 42 7 22 0 51-16 64-9 10-22 16-35 19-16 7-42 3-58 0-6 0-16-3-22-3-61-13-106-3-150 32-42 38-64 96-55 154 10 64 67 124 135 137 51 10 108 0 134-25 10-10 13-20 13-32 3-36-19-58-42-80-22-23-45-48-41-87 0-19 6-35 25-51 23-13 32-16 55-16 64 0 83 58 86 77 16 80-6 153-61 205-48 48-115 70-182 64-80-10-195-90-176-237 6-51 35-90 61-109 48-42 108-70 240-51 19 3 41 0 51-10 13-13 13-35 9-51 0-6-3-16-9-22-7-7-16-4-23-4"/>
<glyph glyph-name="edit-note-o" unicode="&#106;" d="M333 189l-43-42 62-22z m-14 275l-196 0c-44 0-80-36-80-80l0-258c0-65 51-82 80-82l259 0c45 0 81 36 81 81l0 194z m0-48l97-99-25 0c-39 0-72 33-72 72z m111-293c0-26-20-46-46-46l-259 0c-14 0-48 5-48 49l0 258c0 26 20 46 46 46l162 0 0-41c0-58 48-104 104-104l41 0z m-171 46l-105 106c-7 7-7 19 0 25l29 29c6 7 18 7 25 0l106-105c7-7 7-19 0-26l-29-29c-7-7-19-7-26 0z"/>
<glyph glyph-name="spinner" unicode="&#48;" d="M109 241l-80 0c3-50 22-96 53-132l58 58c-17 21-27 46-31 74z m51-98l-59-58c34-29 87-49 121-56l0 82c-17 5-45 17-62 32z m96-34l0-82c51 2 106 22 145 55l-60 58c-22-19-51-29-85-31z m145 166l82 0c-3 51-26 97-56 133l-58-58c17-21 29-48 32-75z m-179 124l0 84c-34-5-85-26-118-55l56-58c17 16 45 26 62 29z m181-158c-4-29-14-55-33-77l58-58c33 36 53 83 57 135z m-263 105l-58 58c-31-35-50-80-53-129l82 0c3 25 14 51 29 71z"/>
<glyph glyph-name="thumbsup" unicode="&#89;" d="M321 267c-6 8-58 90-60 97-1 19 0 38 1 57 0 12-37 29-46 7-6-12-25-57-23-69 2-13 6-44 11-67l-108 0c-14 1-26-10-27-24 0 0 0 0 0 0-1-14 5-26 16-33-6-6-9-14-8-22 1-10 7-20 17-26-6-5-9-13-9-21 1-11 8-21 17-27-5-5-7-12-6-20 2-19 19-33 38-31l170 0c9 0 16 4 23 9 5 3 10 7 16 10l83 1c4 0 8 4 8 8l0 124c0 4-2 7-6 7-14 1-94 4-107 20z"/>
<glyph glyph-name="status" unicode="&#49;" d="M474 147l-382 0 54 53c8 8 9 22 0 30 0 0 0 0 0 0-9 9-23 9-32 0l-91-89c-9-8-9-22-1-31 0 0 0 0 1 0l91-90c9-8 23-8 32 0 8 9 9 22 0 31 0 0 0 0 0 0l-54 53 382 0c12-2 22 7 24 19 0 0 0 0 0 0 1 12-8 23-20 24-1 1-3 1-4 0z m-436 218l382 0-54-52c-8-9-9-22 0-31 0 0 0 0 0 0 9-9 23-9 32 0l91 89c9 9 9 22 1 31 0 0 0 0-1 0l-91 90c-9 8-23 8-32 0-8-9-9-22 0-31 0 0 0 0 0 0l54-53-382 0c-12 2-22-7-24-19-1-12 8-23 20-24 1 0 3 0 4 0l0 0z"/>
<glyph glyph-name="file" unicode="&#50;" d="M276 329c0 3-2 6-6 6l-28 0c-3 0-6-2-6-5l0-141-63 64c-5 5-14 5-20 0l-9-10c-3-2-4-6-4-9 0-4 1-8 4-10l103-104c2-2 6-4 10-4 3 0 7 2 10 4l101 102c5 6 5 15 0 20l-9 10c-6 5-15 5-20 0l-63-63c0 0 0 140 0 140z m72 176l-272 0c-16 0-28-13-28-28l0-442c0-15 12-28 28-28l362 0c15 1 26 13 26 27l0 355c-41 36-80 75-116 116z m6-139l72 0 0-320-339 0 0 420 238 0 0-72c0-16 13-28 29-28z"/>
<glyph glyph-name="cancel" unicode="&#51;" d="M299 256l139 139c11 12 11 29 0 43-11 11-28 11-40 0l-142-142-139 139c-12 12-32 12-43 0-11-8-11-28 0-40l3-2 139-137-139-139c-12-12-12-29 0-40 5-6 14-9 20-9 8 0 14 3 20 9l139 136 139-139c12-11 29-11 40 0 12 11 12 28 3 40l-3 3z"/>
<glyph glyph-name="download" unicode="&#52;" d="M243 110c3-3 7-5 12-5 5 0 10 2 13 5l152 153c8 7 8 19 0 27l-14 14c-7 7-19 7-26 0l-97-97 0 270c0 16-12 29-28 29-16 0-29-13-29-29l0-271-95 98c-8 7-19 7-27 0l-14-14c-3-4-6-9-6-14 0-5 2-10 6-13 0 0 153-153 153-153z m218-49l-410 0c-14-1-24-13-24-26-1-14 8-27 22-29 1 0 1 0 2 0l410 0c14 1 24 13 24 26 1 14-9 27-23 29 0 0-1 0-1 0z"/>
</font>
</defs>
</svg>
